S W A T (SWAT) S02E10 1000 Joules 1080p Torrent Free Download

Seeders : 231   &   Leechers : 547      07-12-2018 (5 days)
S W A T (SWAT) S02E10 1000 Joules 1080p Torrent Download
Added: ago by PhunPsyz ***** in TV   871.9 MB   Hits : 16
Info Hash: 8ADFDCB25C6B6CC9E1476421FEF7D484C27FFD08 Download
S W A T (SWAT) S02E10 1000 Joules 1080p Torrent Download

Anonymous and Direct Download movies , software , shows...

Fast Safe Anonymous
movies, software, shows...
San Francisco S.W.A.T
Documentary   .   N/A   N/A/10
Starring : Documentary  
Director : N/A  
Writer: N/A  
Tags: S  W  A  T    (SWAT)  

Released:
N/A
N/A

Torrent Description



www.imdb.com/title/tt9153108/?ref_=ttep_ep10

The SWAT team must recover DNA evidence kits stolen from a crime lab and bring in the crew responsible; financial strain at home makes it difficult for Deacon to focus on his role as leader of the SWAT division's annual holiday toy drive.

Source: Memento







Format : MPEG-4
Format profile : Base Media / Version 2
Codec ID : mp42 (isom/iso2/avc1/mp41)
File size : 872 MiB
Duration : 42 min 43 s
Overall bit rate mode : Variable
Overall bit rate : 2 853 kb/s

Video
ID : 1
Format : AVC
Format/Info : Advanced Video Codec
Format profile : [email protected]
Format settings : CABAC / 1 Ref Frames
Format settings, CABAC : Yes
Format settings, ReFrames : 1 frame
Codec ID : avc1
Codec ID/Info : Advanced Video Coding
Duration : 42 min 43 s
Bit rate : 2 368 kb/s
Width : 1 920 pixels
Height : 1 080 pixels
Display aspect ratio : 16:9
Frame rate mode : Constant
Frame rate : 24.000 FPS
Color space : YUV
Chroma subsampling : 4:2:0
Bit depth : 8 bits
Scan type : Progressive
Bits/(Pixel*Frame) : 0.048
Stream size : 724 MiB (83%)
Writing library : x264 core 155 r2901 7d0ff22

Audio #1
ID : 2
Format : AC-3
Format/Info : Audio Coding 3
Commercial name : Dolby Digital
Codec ID : ac-3
Duration : 42 min 43 s
Bit rate mode : Constant
Bit rate : 320 kb/s
Channel(s) : 6 channels
Channel layout : L R C LFE Ls Rs
Sampling rate : 48.0 kHz
Frame rate : 31.250 FPS (1536 SPF)
Bit depth : 16 bits
Compression mode : Lossy
Stream size : 97.8 MiB (11%)
Title : Surround / Surround
Language : English

Audio #2
ID : 3
Format : AAC LC
Format/Info : Advanced Audio Codec Low Complexity
Codec ID : mp4a-40-2
Duration : 42 min 43 s
Bit rate mode : Variable
Bit rate : 159 kb/s
Channel(s) : 2 channels
Channel layout : L R
Sampling rate : 48.0 kHz
Frame rate : 46.875 FPS (1024 SPF)
Compression mode : Lossy
Stream size : 48.7 MiB (6%)
Title : Stereo / Stereo
Language : English

Text
Language : English
Default : Yes
Forced : No




Sharing Widget


No Comments For This Torrent . Be The First to Comment

You must Login to Comment . Click Here to Login

Menu 1

Some content in menu 1.

S W A T (SWAT) S02E10 1000 Joules 1080p 5 1 - 2 0 x264 Phun Psyz (Size: 871.9 MB)
  S W A T (SWAT) S02E10 1000 Joules 1080p 5 1 - 2 0 x264 Phun Psyz 871.9 MB
tracker name
udp://tracker.leechers-paradise.org:6969/announce
udp://zer0day.ch:1337/announce
udp://open.demonii.com:1337/announce
udp://tracker.coppersurfer.tk:6969/announce
udp://exodus.desync.com:6969/announce
µTorrent compatible trackers list

Relative Torrents

Torrent Name Size Age SEED LEECH
Adobe Lightroom Classic CC 8 1 RePack [KlomPC com]
Posted by    manulik   in   Applications
1.1 GB 23 seconds 825 181
Highway Thru Hell S07E15 HDTV x264-aAF [ztv]
Posted by    EZTVag   in   TV
448.1 MB 5 minutes 474 922
Hot in Cleveland S05 1080p AMZN WEBRip DP2 0 x265-SiGMA
Posted by    Trige   in   TV
19.8 GB 5 minutes 295 970
Haruomi Hosono 2000 Hosono Box 1969-2000{Daisyworld-Japan}
Posted by    hades09   in   Music
1.4 GB 5 minutes 254 124
Highway Thru Hell S07E15 HDTV x264-aAF[Tx]
Posted by    mazemaze16   in   TV
450.2 MB 5 minutes 457 210
Venom *2018* [720p] [HDRip] [AC3] [XviD-KLiO]... | Doraemon: Nobita’s Dinosaur (2006) | A Gentleman's Dignity